osu file format v14

[General]
AudioFilename: Bumblefuck.mp3
AudioLeadIn: 1500
PreviewTime: 35048
Countdown: 0
SampleSet: Normal
StackLeniency: 0.2
Mode: 1
LetterboxInBreaks: 0
WidescreenStoryboard: 0

[Editor]
DistanceSpacing: 1.2
BeatDivisor: 4
GridSize: 32
TimelineZoom: 1.8

[Metadata]
Title:Bumblefuck
TitleUnicode:Bumblefuck
Artist:Renard
ArtistUnicode:Renard
Creator:Lost The Lights
Version:Dekaane's Kantan
Source:
Tags:BEST OF VOL 1: Because Maybe! electronic lapfox trax killer bee attack force queenston -Anhedonia- kazukisinx MikuWhiteRockShooter MikuWRS DakeDekaane
BeatmapID:696206
BeatmapSetID:243045

[Difficulty]
HPDrainRate:5
CircleSize:4
OverallDifficulty:4
ApproachRate:9
SliderMultiplier:1.2
SliderTickRate:2

[Events]
//Background and Video events
0,0,"VULPvibe Records - Killer Bee Attack Force - cover.PNG",0,0
//Break Periods
//Storyboard Layer 0 (Background)
//Storyboard Layer 1 (Fail)
//Storyboard Layer 2 (Pass)
//Storyboard Layer 3 (Foreground)
//Storyboard Sound Samples

[TimingPoints]
139,272.727272727273,4,1,0,80,1,0
43775,-100,4,1,0,80,0,1
51411,-100,4,1,0,80,0,0
52502,-100,4,1,0,80,0,1
61229,-100,4,1,0,80,0,0
143048,-100,4,1,0,80,0,1
150684,-100,4,1,0,80,0,0
151775,-100,4,1,0,80,0,1
160502,-100,4,1,0,80,0,0

[Colours]
Combo1 : 255,128,0
Combo2 : 128,128,128
Combo3 : 255,255,0
Combo4 : 255,0,0

[HitObjects]
256,192,8866,5,4,0:0:0:0:
256,192,9139,1,4,0:0:0:0:
256,192,13229,1,4,0:0:0:0:
256,192,13502,1,4,0:0:0:0:
256,192,17593,1,0,0:0:0:0:
256,192,18139,1,0,0:0:0:0:
256,192,18684,1,0,0:0:0:0:
256,192,19229,1,8,0:0:0:0:
256,192,19775,1,0,0:0:0:0:
256,192,20320,1,0,0:0:0:0:
256,192,20866,1,8,0:0:0:0:
256,192,21957,1,0,0:0:0:0:
256,192,22502,1,0,0:0:0:0:
256,192,23048,1,0,0:0:0:0:
256,192,23593,1,8,0:0:0:0:
256,192,24139,1,0,0:0:0:0:
256,192,24684,1,0,0:0:0:0:
256,192,25229,1,8,0:0:0:0:
256,192,26320,1,0,0:0:0:0:
256,192,26866,1,8,0:0:0:0:
256,192,27411,1,8,0:0:0:0:
256,192,27957,1,8,0:0:0:0:
256,192,28229,1,8,0:0:0:0:
256,192,28502,1,0,0:0:0:0:
256,192,29048,1,0,0:0:0:0:
256,192,29593,1,8,0:0:0:0:
256,192,30684,1,0,0:0:0:0:
256,192,31229,1,8,0:0:0:0:
256,192,31775,1,8,0:0:0:0:
256,192,32320,1,8,0:0:0:0:
256,192,32593,1,8,0:0:0:0:
256,192,32866,1,0,0:0:0:0:
256,192,33411,1,0,0:0:0:0:
256,192,33957,1,8,0:0:0:0:
256,192,35048,1,0,0:0:0:0:
256,192,35593,1,0,0:0:0:0:
256,192,36139,1,0,0:0:0:0:
256,192,37229,1,8,0:0:0:0:
256,192,37775,1,0,0:0:0:0:
256,192,38320,1,8,0:0:0:0:
256,192,39411,1,0,0:0:0:0:
256,192,39957,1,0,0:0:0:0:
256,192,40502,1,0,0:0:0:0:
256,192,41593,1,8,0:0:0:0:
256,192,42139,1,0,0:0:0:0:
256,192,42684,1,8,0:0:0:0:
256,192,43775,1,0,0:0:0:0:
256,192,44320,1,0,0:0:0:0:
256,192,44866,1,0,0:0:0:0:
256,192,45139,1,0,0:0:0:0:
256,192,45411,1,0,0:0:0:0:
256,192,45957,1,0,0:0:0:0:
256,192,46502,1,0,0:0:0:0:
256,192,47048,1,0,0:0:0:0:
256,192,47320,1,0,0:0:0:0:
256,192,47593,1,8,0:0:0:0:
256,192,48139,1,0,0:0:0:0:
256,192,48684,1,0,0:0:0:0:
256,192,49229,1,0,0:0:0:0:
256,192,49502,1,0,0:0:0:0:
256,192,49775,1,0,0:0:0:0:
256,192,50320,1,0,0:0:0:0:
256,192,50866,1,0,0:0:0:0:
256,192,51411,1,8,0:0:0:0:
256,192,52502,1,0,0:0:0:0:
256,192,53048,1,0,0:0:0:0:
256,192,53593,1,8,0:0:0:0:
256,192,53866,1,8,0:0:0:0:
256,192,54139,1,8,0:0:0:0:
256,192,54684,1,0,0:0:0:0:
256,192,55229,1,0,0:0:0:0:
256,192,55775,1,0,0:0:0:0:
256,192,56048,1,0,0:0:0:0:
256,192,56320,1,8,0:0:0:0:
256,192,56866,1,0,0:0:0:0:
256,192,57411,1,0,0:0:0:0:
256,192,57957,1,8,0:0:0:0:
256,192,58229,1,8,0:0:0:0:
256,192,58502,1,8,0:0:0:0:
256,192,59048,1,0,0:0:0:0:
256,192,59593,1,0,0:0:0:0:
256,192,60139,2,0,L|512:192|512:192,1,240,,,0:0:0:0:
256,192,61229,1,4,0:0:0:0:
256,192,61502,1,4,0:0:0:0:
256,192,65593,1,4,0:0:0:0:
256,192,65866,1,4,0:0:0:0:
256,192,69957,1,0,0:0:0:0:
256,192,70366,1,0,0:0:0:0:
256,192,71048,1,0,0:0:0:0:
256,192,72139,1,0,0:0:0:0:
256,192,72548,1,0,0:0:0:0:
256,192,73229,1,0,0:0:0:0:
256,192,74320,1,8,0:0:0:0:
256,192,74729,1,8,0:0:0:0:
256,192,75139,1,8,0:0:0:0:
256,192,75548,1,8,0:0:0:0:
256,192,75957,1,8,0:0:0:0:
256,192,76502,1,0,0:0:0:0:
256,192,76775,1,0,0:0:0:0:
256,192,77048,1,0,0:0:0:0:
256,192,77320,1,0,0:0:0:0:
256,192,77593,2,0,B|512:192|512:192|512:0|512:0|480:0,1,480,,,0:0:0:0:
256,192,79775,12,0,80593,0:0:0:0:
256,192,80866,5,0,0:0:0:0:
256,192,81411,1,0,0:0:0:0:
256,192,82229,1,8,0:0:0:0:
256,192,82502,1,8,0:0:0:0:
256,192,83048,1,0,0:0:0:0:
256,192,83593,1,0,0:0:0:0:
256,192,84411,1,8,0:0:0:0:
256,192,84684,1,8,0:0:0:0:
256,192,85229,1,0,0:0:0:0:
256,192,85775,1,0,0:0:0:0:
256,192,86593,1,8,0:0:0:0:
256,192,86866,1,8,0:0:0:0:
256,192,87411,1,0,0:0:0:0:
256,192,88502,1,8,0:0:0:0:
256,192,89593,1,0,0:0:0:0:
256,192,90139,1,0,0:0:0:0:
256,192,90684,1,8,0:0:0:0:
256,192,91229,1,8,0:0:0:0:
256,192,91775,1,0,0:0:0:0:
256,192,92866,1,0,0:0:0:0:
256,192,93957,1,0,0:0:0:0:
256,192,94502,1,0,0:0:0:0:
256,192,95048,1,8,0:0:0:0:
256,192,95593,1,8,0:0:0:0:
256,192,96139,1,0,0:0:0:0:
256,192,97229,1,8,0:0:0:0:
256,192,98320,1,4,0:0:0:0:
256,192,98593,1,4,0:0:0:0:
256,192,102684,1,4,0:0:0:0:
256,192,102957,1,4,0:0:0:0:
256,192,107048,1,0,0:0:0:0:
256,192,107457,1,0,0:0:0:0:
256,192,108139,1,0,0:0:0:0:
256,192,109229,1,0,0:0:0:0:
256,192,109639,1,0,0:0:0:0:
256,192,110320,1,0,0:0:0:0:
256,192,111411,1,8,0:0:0:0:
256,192,111820,1,8,0:0:0:0:
256,192,112229,1,8,0:0:0:0:
256,192,112639,1,8,0:0:0:0:
256,192,113048,1,8,0:0:0:0:
256,192,113593,1,0,0:0:0:0:
256,192,113866,1,0,0:0:0:0:
256,192,114139,1,0,0:0:0:0:
256,192,114411,1,0,0:0:0:0:
256,192,114684,2,0,B|512:192|512:192|512:0|512:0|480:0,1,480,,,0:0:0:0:
288,192,120139,5,8,0:0:0:0:
256,192,124502,2,0,B|512:192|512:192|512:0|512:0|288:0,1,660,,,0:0:0:0:
256,192,128866,5,8,0:0:0:0:
256,192,131048,12,0,132957,0:0:0:0:
256,192,133229,12,0,134048,0:0:0:0:
256,192,134320,5,0,0:0:0:0:
256,192,134866,1,8,0:0:0:0:
256,192,135411,1,0,0:0:0:0:
256,192,135957,1,8,0:0:0:0:
256,192,136502,1,0,0:0:0:0:
256,192,137593,1,0,0:0:0:0:
256,192,138684,1,0,0:0:0:0:
256,192,139229,1,8,0:0:0:0:
256,192,139775,1,0,0:0:0:0:
256,192,140320,1,8,0:0:0:0:
256,192,140866,1,0,0:0:0:0:
256,192,141957,12,0,142775,0:0:0:0:
256,192,143048,5,0,0:0:0:0:
256,192,143593,1,0,0:0:0:0:
256,192,143866,1,0,0:0:0:0:
256,192,144139,1,0,0:0:0:0:
256,192,144684,1,8,0:0:0:0:
256,192,145229,1,0,0:0:0:0:
256,192,145775,1,0,0:0:0:0:
256,192,146048,1,0,0:0:0:0:
256,192,146320,1,0,0:0:0:0:
256,192,146866,1,8,0:0:0:0:
256,192,147411,1,0,0:0:0:0:
256,192,147957,1,0,0:0:0:0:
256,192,148229,1,0,0:0:0:0:
256,192,148502,1,0,0:0:0:0:
256,192,149048,1,8,0:0:0:0:
256,192,149593,1,0,0:0:0:0:
256,192,150139,1,0,0:0:0:0:
256,192,150411,1,0,0:0:0:0:
256,192,150684,1,0,0:0:0:0:
256,192,151775,1,4,0:0:0:0:
256,192,152320,1,4,0:0:0:0:
256,192,152866,1,12,0:0:0:0:
256,192,153411,1,12,0:0:0:0:
256,192,153957,1,4,0:0:0:0:
256,192,154502,1,4,0:0:0:0:
256,192,155048,1,12,0:0:0:0:
256,192,155593,1,12,0:0:0:0:
256,192,156139,1,4,0:0:0:0:
256,192,156411,1,4,0:0:0:0:
256,192,156684,1,4,0:0:0:0:
256,192,157229,1,12,0:0:0:0:
256,192,157502,1,12,0:0:0:0:
256,192,157775,1,12,0:0:0:0:
256,192,158320,2,0,B|512:192|512:192|512:0|512:0|480:0,1,480,,,0:0:0:0:
256,192,160502,5,4,0:0:0:0:
256,192,163775,1,8,0:0:0:0:
256,192,164320,1,0,0:0:0:0:
256,192,164593,1,8,0:0:0:0:
256,192,164866,1,0,0:0:0:0:
